Problem importing CUE file w/multiple wav files.

All topics on WaveLab 9 and WaveLab Elements 9
Post Reply
mvincenzes
New Member
Posts: 2
Joined: Thu Mar 05, 2015 1:06 am
Contact:

Problem importing CUE file w/multiple wav files.

Post by mvincenzes »

I have a .cue file where each track is in a different .wav file (see example below).
When I import this CUE+Audio into wavelab 9 all I get is the last track/file.
The same cue+audio works fine in wavelab 6.
It does not work on wavelab 8.5 either (where I originally reported it against with Steinberg support about a year ago).

Note that if all the tracks are in ONE file, the import works fine.

Here is an example of the CUE file:

Code: Select all

TITLE "CD Cue File Import Test"
PERFORMER "Wavelab"
FILE "Track-01.wav" WAVE
  TRACK 01 AUDIO
    TITLE "Track-01"
    PERFORMER "Wavelab"
    MESSAGE "This is a test"
    INDEX 01 00:00:00
FILE "Track-02.wav" WAVE
  TRACK 02 AUDIO
    TITLE "Track-02"
    PERFORMER "Wavelab"
    MESSAGE "This is a test"
    INDEX 00 00:00:00
    INDEX 01 00:04:00
FILE "Track-03.wav" WAVE
  TRACK 03 AUDIO
    TITLE "Track-03"
    PERFORMER "Wavelab"
    MESSAGE "This is a test"
    INDEX 00 00:00:00
    INDEX 01 00:04:00
FILE "Track-04.wav" WAVE
  TRACK 04 AUDIO
    TITLE "Track-04"
    PERFORMER "Wavelab"
    MESSAGE "This is a test"
    INDEX 00 00:00:00
    INDEX 01 00:04:00
FILE "Track-05.wav" WAVE
  TRACK 05 AUDIO
    TITLE "Track-05"
    PERFORMER "Wavelab"
    MESSAGE "This is a test"
    INDEX 00 00:00:00
    INDEX 01 00:04:00
FILE "Track-06.wav" WAVE
  TRACK 06 AUDIO
    TITLE "Track-06"
    PERFORMER "Wavelab"
    MESSAGE "This is a test"
    INDEX 00 00:00:00
    INDEX 01 00:04:00
FILE "Track-07.wav" WAVE
  TRACK 07 AUDIO
    TITLE "Track-07"
    PERFORMER "Wavelab"
    MESSAGE "This is a test"
    INDEX 00 00:00:00
    INDEX 01 00:04:00
FILE "Track-08.wav" WAVE
  TRACK 08 AUDIO
    TITLE "Track-08"
    PERFORMER "Wavelab"
    MESSAGE "This is a test"
    INDEX 00 00:00:00
    INDEX 01 00:04:00

PG
Moderator
Posts: 7800
Joined: Wed Dec 15, 2010 6:15 pm
Contact:

Re: Problem importing CUE file w/multiple wav files.

Post by PG »

Will be fixed in WaveLab 9.0.30
Philippe

mvincenzes
New Member
Posts: 2
Joined: Thu Mar 05, 2015 1:06 am
Contact:

Re: Problem importing CUE file w/multiple wav files.

Post by mvincenzes »

Great news. Thanks for the quick response.

Post Reply

Return to “WaveLab Pro 9 | WaveLab Elements 9”

Who is online

Users browsing this forum: No registered users and 1 guest